#TITLE:DoLL;
#SUBTITLE:~Sky Fid re-edit~;
#ARTIST:TERRA;
#TITLETRANSLIT:;
#SUBTITLETRANSLIT:;
#ARTISTTRANSLIT:;
#CREDIT:;
#BANNER:DoLL.png;
#BACKGROUND:DoLL-bg.png;
#LYRICSPATH:;
#CDTITLE:sky fid.png;
#MUSIC:DoLL.mp3;
#OFFSET:-1.137;
#SAMPLESTART:45.670;
#SAMPLELENGTH:12.000;
#SELECTABLE:YES;
#DISPLAYBPM:170.000;
#BPMS:0.000=170.020,228.000=85.000,236.000=170.000;
#STOPS:;
#BGCHANGES:;
// cache tags:
#FIRSTBEAT:0.000;
#LASTBEAT:308.000;
#SONGFILENAME:Songs/Chilean Keyboard Megapack 3/(Sky Fid) DoLL/DoLL.sm;
#HASMUSIC:1;
#HASBANNER:1;
#MUSICLENGTH:117.057;
// end cache tags

//---------------dance-single - ----------------
#NOTES:
     dance-single:
     :
     Challenge:
     10:
     1.000,0.987,1.000,0.205,0.649,698.000,154.000,24.000,0.000,5.000:
1001
0100
0010
0001
1000
0010
0100
0001
,
0101
1000
0010
1000
0001
0010
1000
0010
,
0102
0000
0000
0000
0000
0000
0000
0000
0100
0000
0000
0000
0000
0000
0000
0000
0100
0000
0000
0000
0100
0000
0000
0000
0103
0000
0000
0000
0000
0000
0000
0010
,
1000
0000
0000
0000
0000
0000
0000
0000
0110
0000
0000
0000
0001
1000
0000
0000
0000
0000
0000
0000
1001
0000
0000
0000
0000
0000
0000
0000
0110
0000
0000
0000
,
1001
0000
0100
1010
0000
0010
0100
1000
,
0101
0000
0100
1001
0000
0001
0010
0100
,
0011
0000
0000
0000
0100
0000
0100
0000
0010
0000
0010
0000
1001
0000
0001
0010
,
0001
0000
0100
0010
0100
0000
0001
1000
0010
0100
0001
0010
0100
1000
0010
0100
,
1001
0100
1001
0100
0011
0100
0011
0100
,
1010
1010
1100
1100
0101
0101
0011
0011
,
0001
0010
0100
0001
0100
1000
0010
0100
,
1010
0000
0100
0000
1001
0000
0100
0000
0011
0000
0100
0000
0010
0100
0001
0100
,
0011
0000
0100
0000
0010
0000
0001
0000
0010
0000
1000
0000
0100
0010
0001
0000
,
1001
0010
0100
1000
0100
0010
1001
0101
,
1000
0100
1000
0000
0010
0000
0100
0000
0010
0100
0001
0000
1000
0000
0010
0000
,
1000
0100
0010
0001
1000
0010
0100
0001
1000
0100
0010
0100
0001
0100
1000
0001
,
1100
0010
0001
1000
0100
0000
1100
0011
,
0000
0000
0010
0000
1000
0000
1100
0000
0000
0000
0010
0100
0010
0000
1100
0000
,
0101
0010
1000
1000
0001
0001
0010
1010
,
0000
0000
1000
0010
0100
0000
1000
0010
0100
0010
1000
0000
0110
0000
0000
0000
,
0010
0010
1100
1001
0010
0100
1001
0000
,
1000
0010
0001
0010
1000
0010
0110
0000
,
1000
1000
0010
0110
0100
0101
0001
1001
,
0000
0000
0010
0010
1000
0001
0100
0010
1000
0000
0010
0000
1000
0100
1000
0000
,
0011
0000
0100
0000
0010
0000
0100
0000
0001
0000
0100
0000
1000
0010
0001
0000
,
1000
0000
0001
0000
0010
0000
0100
0000
0001
0000
0010
0000
0100
0001
1000
0000
,
0020
0001
0031
0100
0100
0010
2001
0100
,
3021
0001
0132
1000
0123
0100
1230
1000
,
1320
0001
1030
0001
0110
0001
1000
0010
,
1100
0001
0010
0100
0011
0101
1100
1010
,
0010
0100
1000
0100
0010
0100
0001
1000
0100
0010
0001
0100
0010
1000
0010
0000
,
1001
0000
0000
0011
0000
0000
1000
0010
0100
0000
0001
0000
0010
0000
0100
0000
,
2002
0000
0000
3003
0000
0000
2200
0000
0000
3300
0001
0000
0101
0000
0100
0000
,
2002
0000
0000
3003
0000
0000
2200
0000
0000
3300
0001
0000
0010
0000
1000
0000
,
0101
0000
0001
0010
0001
0110
1001
0000
,
0010
0000
0001
0000
0010
0000
1100
0000
1001
0000
1000
0010
0100
0010
1000
0000
,
0210
0000
0001
0000
1000
0300
0010
0000
1100
0000
1100
0000
1001
0000
0010
0000
,
0100
0010
0001
0010
1100
0011
1001
0010
,
1200
0000
0010
0000
0001
0301
0110
0010
,
0011
0000
0000
0000
0110
0000
0000
0000
0100
0001
0100
1000
0100
0001
1000
0010
,
1001
0100
1001
0100
0011
0100
1001
0010
,
1010
0000
0100
0000
0101
0000
1000
0000
1001
0000
0010
0000
0001
1000
0100
0000
,
0001
1000
0100
0110
1100
0010
0101
0101
,
0001
0010
0100
1000
0100
0010
0001
0100
0010
1000
0100
0010
0100
1000
0010
0100
,
0011
0100
0011
0100
1010
0100
1010
0100
,
1100
1100
0110
0110
0011
0011
0110
1100
,
0002
0000
0000
0003
1010
0000
0100
0000
0200
0000
0000
0000
0300
0000
1000
0100
,
0010
0100
1000
0010
0001
0010
1000
0100
0010
0001
0100
0010
0001
0010
0100
0010
,
1100
0000
0000
0000
0010
0000
1000
0100
1000
0100
0010
0000
0001
0000
1100
0000
,
1100
0000
0000
0000
0001
0000
1000
0010
0001
0010
1000
0000
0010
0000
0110
0000
,
0110
0000
0000
0000
0001
0000
1000
0100
0001
0100
1000
0000
0010
0000
0011
0000
,
0011
0000
0000
0000
0010
0000
1000
0100
0010
0001
1000
0000
0010
0000
1100
0000
,
1100
0000
0000
0000
0010
0000
1000
0100
0001
0010
1000
0000
0001
0000
1100
0000
,
0110
0000
0000
0000
1000
0000
0001
0001
0100
1000
0010
0000
0001
0000
1100
0000
,
0101
0000
0000
0000
0010
0000
1001
0100
0010
0100
0001
0000
1000
0000
0011
0000
,
1010
0000
0000
0000
1000
0000
0101
0000
1000
0010
0100
0000
0100
0000
0001
1001
,
0000
0000
1000
0100
0010
0001
0000
1100
0000
0010
0100
0010
1001
0000
0000
0000
,
1000
0100
0010
0001
0000
0100
0010
1000
0100
1000
0010
0001
0000
0010
1000
0010
,
0100
0000
0001
0000
0200
0000
0000
0000
0010
0000
0000
0000
1300
0000
0000
0000
0011
0000
0000
0000
0100
0000
0000
0000
1001
0000
1000
0100
0010
0001
0100
0010
,
1001
0000
0100
0000
0010
0000
0100
0000
0001
0010
0001
0000
1000
0100
1000
0000
,
0011
0000
1000
0000
0011
0000
1000
0000
0010
0100
0010
0000
0100
0001
0100
0000
,
1001
0000
0010
0100
0001
0000
0101
0000
0000
0000
0010
0100
1000
0000
1100
0000
,
0000
0000
0010
1000
0001
0000
0010
0100
0001
0100
0010
1000
0110
0000
0000
0000
,
1001
0000
0100
0000
0010
0000
0001
0010
0100
1000
0010
0000
1010
0000
1001
0000
,
0010
0000
0100
0000
0010
0000
1000
0100
0010
0100
1000
0000
0100
0000
1100
0000
,
0010
0000
1100
0000
0101
0000
0010
0100
1000
0100
0010
0100
1001
0000
0000
0000
,
0010
0000
1000
0100
0010
0000
1000
0100
0010
0100
1000
0001
0110
0000
0001
0000
,
0100
0010
1000
0200
0000
0310
1000
0110
,
0001
0010
0100
0000
0001
0000
1100
0000
0001
0000
0100
0000
0011
0000
0100
0000
,
1010
0100
0010
1100
0000
0110
0001
0110
,
1000
0100
0001
0000
0100
0000
1000
0000
1000
0010
0001
0010
0100
0001
1000
0000
,
0011
0100
0010
1100
0000
0010
1000
0011
,
0100
0000
0010
0000
0100
0000
1010
0000
0001
1000
0000
0001
1000
0000
0100
0000
,
0001
0010
1000
0010
0100
1000
0100
0010
0001
0100
0010
0100
0001
1000
0100
1000
,
0010
0001
0010
0100
0001
0010
0100
1000
0010
0100
1000
0100
0010
1000
0100
0002
,
0000
0000
0000
0003
1000
0000
0000
0000
0100
0000
0000
0000
0010
0000
0000
0000
1000
0000
0000
0000
0100
0000
0000
0000
0010
0000
0000
0000
1000
0000
0000
0000
0010
0000
0000
0000
0001
0000
0000
0000
1000
0000
0000
0000
0010
0000
0000
0000
,
0002
0000
0000
0000
,
0003
0000
0000
0000
;
